<?xml version="1.0" standalone="no"?>
<!DOCTYPE svg PUBLIC "-//W3C//DTD SVG 1.1//EN" "http://www.w3.org/Graphics/SVG/1.1/DTD/svg11.dtd" >
<svg xmlns="http://www.w3.org/2000/svg">
<metadata>
<json>
<![CDATA[
{
	"fontFamily": "lexperaicon-regular",
	"majorVersion": 1,
	"minorVersion": 0,
	"designer": "Lexpera",
	"copyright": "Lexpera",
	"version": "Version 1.0",
	"fontId": "lexperaicon-regular",
	"psName": "lexperaicon-regular",
	"subFamily": "Regular",
	"fullName": "lexperaicon-regular",
	"description": "Font generated by IcoMoon."
}
]]>
</json>
</metadata>
<defs>
<font id="lexperaicon-regular" horiz-adv-x="1024">
<font-face units-per-em="1024" ascent="1024" descent="0" />
<missing-glyph horiz-adv-x="1024" />
<glyph unicode="&#x20;" horiz-adv-x="0" d="" />
<glyph unicode="&#x28;" glyph-name="uni28" d="M640 256l-256 256 256 256v-512z" />
<glyph unicode="&#x29;" glyph-name="uni29" d="M384 768l256-256-256-256v512z" />
<glyph unicode="&#x30;" glyph-name="uni30" d="M216.064 364.032q74.752 72.192 147.968 146.688t147.968 149.248q74.752-74.752 147.968-149.248t147.968-146.688h-591.872z" />
<glyph unicode="&#x31;" glyph-name="uni31" d="M807.936 672.256q-74.752-72.704-147.968-147.2t-147.968-149.248q-74.752 74.752-147.968 149.248t-147.968 147.2h591.872z" />
<glyph unicode="&#x32;" glyph-name="uni32" d="M910.848 573.952v67.328t0-10.496 0.256-28.416 0.256-37.376v-79.104q0-13.824-5.376-26.112t-14.592-21.504-21.504-14.592-26.112-5.376h-209.408q-12.288 0-23.296-4.864t-19.2-12.8-13.056-18.944-4.864-23.296v-208.384h-461.312v423.936h798.208zM910.848 637.952h-798.208v172.032h111.616v64h64v-64h448v64h64v-64h110.592v-172.032zM635.392 345.088q0 6.144 3.584 9.216 4.096 4.096 9.216 4.096h165.376l-178.176-178.688v165.376z" />
<glyph unicode="&#x33;" glyph-name="uni33" d="M881.664 687.104q16.896 0 31.488-6.144t25.6-16.896 17.408-25.344 6.4-30.976l-45.568-360.448q-1.536-13.312-8.192-27.392t-17.408-25.6-24.832-18.944-30.976-7.424h-11.264v7.168q21.504 9.728 34.56 28.672t13.056 43.52v90.112q0 0.512 0.256 0.512t0.256 0.512v348.672h9.216zM788.48 338.432q0-0.512-0.256-0.512t-0.256-0.512v-90.112q0-16.384-6.4-30.72t-17.408-25.088-25.6-17.152-31.488-6.4h-564.736q-16.896 0-31.488 6.4t-25.6 17.152-17.408 25.088-6.4 30.72v360.448q0 16.384 6.4 30.976t17.408 25.344 25.6 16.896 31.488 6.144h232.96v11.776q0 16.384 6.4 30.72t17.408 25.088 25.856 17.152 31.744 6.4h250.368q16.896 0 31.744-6.4t25.856-17.152 17.408-25.088 6.4-30.72v-360.448z" />
<glyph unicode="&#x34;" glyph-name="uni34" d="M931.328 687.104q16.896 0 31.744-6.144t25.856-16.896 17.408-25.344 6.4-30.976l-85.504-360.448q-1.536-13.312-8.192-27.392t-17.408-25.6-24.832-18.944-30.976-7.424h-11.776v7.168q10.752 4.608 19.456 13.824t14.592 22.272 7.424 29.44-2.048 35.84l-80.384 410.624h138.24zM799.232 338.432q0-0.512 0.256-0.512t0.256-0.512v-0.512l19.456-89.6q3.584-16.384 0.512-30.72t-11.776-25.088-22.272-17.152-30.464-6.4h-564.224q-16.896 0-33.024 6.4t-29.696 17.152-23.040 25.088-13.056 30.72l-78.848 360.448q-3.584 16.384-0.512 30.976t11.776 25.344 22.272 16.896 30.464 6.144h232.96l-3.072 11.776q-3.584 16.384-0.256 30.72t12.032 25.088 22.016 17.152 30.208 6.4h250.368q16.896 0 33.024-6.4t29.696-17.152 23.040-25.088 13.056-30.72z" />
<glyph unicode="&#x35;" glyph-name="uni35" d="M992.256 723.456v-101.888h-133.12v-132.608h-101.376v132.608h-132.608v101.888h132.608v132.608h101.376v-132.608h133.12zM682.496 436.736h77.824v-189.44q0-16.384-6.4-30.72t-17.664-25.088-25.856-17.152-31.488-6.4h-565.248q-16.896 0-31.744 6.4t-25.856 17.152-17.408 25.088-6.4 30.72v361.472q0 16.384 6.4 30.72t17.408 25.088 25.856 16.896 31.744 6.144h232.96v12.288q0 16.384 6.4 30.72t17.408 25.088 25.856 16.896 31.744 6.144h139.776v-214.528h114.688v-127.488zM844.288 423.424h67.072l-22.528-176.128q-1.536-13.312-8.192-27.392t-17.152-25.6-24.832-18.944-31.232-7.424h-11.264v7.168q21.504 9.728 34.816 28.672t13.312 43.52v176.128z" />
<glyph unicode="&#x36;" glyph-name="uni36" d="M895.488 619.008v-409.6h-616.96v746.496h281.6q13.824 0 26.112-5.376t21.504-14.592 14.592-21.504 5.376-26.112v-181.76h-101.376v-224.256h-121.344l182.272-181.76 181.76 181.76h-114.688v146.944q14.848-10.24 33.28-10.24h207.872zM700.928 679.936q-5.632 0-9.728 4.096-3.584 3.584-3.584 9.216v165.376l178.688-178.688h-165.376zM210.432 145.92h483.328v-77.824h-565.76v735.232h82.432v-657.408z" />
<glyph unicode="&#x37;" glyph-name="uni37" d="M895.488 619.008v-409.6h-616.96v746.496h281.6q13.824 0 26.112-5.376t21.504-14.592 14.592-21.504 5.376-26.112v-209.408q0-12.288 4.608-23.296t12.8-19.2 19.2-12.8 23.296-4.608h25.088v-51.2h-252.416v67.584h-67.584v-133.632h387.072v117.248h115.712zM779.776 442.88h-67.072v-67.584h-252.416v67.584h-67.584v-133.632h387.072v133.632zM700.928 679.936q-5.632 0-9.728 4.096-3.584 3.584-3.584 9.216v165.376l178.688-178.688h-165.376zM210.432 145.92h483.328v-77.824h-565.76v735.232h82.432v-657.408z" />
<glyph unicode="&#x38;" glyph-name="uni38" d="M513.536 607.232q24.576-23.552 33.28-38.4 9.728-15.872 9.984-32.512t-13.056-29.44q-11.264-10.24-26.368-12.032t-33.024 9.472q-15.36 9.216-52.224 41.472-22.528 19.456-33.28 36.352-10.24 16.384-11.008 33.28t12.544 30.208q14.336 13.824 31.488 12.288t34.048-11.776q9.728-5.632 21.504-15.616t26.112-23.296zM895.488 619.008v-409.6h-616.96v746.496h281.6q13.824 0 26.112-5.376t21.504-14.592 14.592-21.504 5.376-26.112v-209.408q0-12.288 4.608-23.296t12.8-19.2 19.2-12.8 23.296-4.608h207.872zM517.12 475.136q19.456 1.536 36.864 7.68t30.464 16.896 20.736 25.856 7.68 34.56q0 14.848-4.864 28.416t-12.8 25.6-18.688 22.784-22.016 20.48l-59.392 50.176q-22.016 17.92-35.84 32t-20.48 23.296q-13.312 18.944-13.312 36.352 0 20.48 14.336 33.28 13.824 12.288 36.864 12.288 16.896 0 27.136-7.168 11.776-7.168 11.776-15.36 0-4.608-10.752-16.896-9.216-11.264-10.24-22.016t4.096-18.944 14.848-13.312 21.504-5.12q20.48 0 31.488 12.288t11.008 32.256q0 18.432-8.96 32t-23.040 22.528-32 13.312-35.84 4.352q-23.040 0-43.52-5.376t-36.096-16.384-24.832-27.648-9.216-39.168q0-15.36 5.632-28.672t14.592-25.344 20.224-23.040 23.040-21.248q-19.968-1.024-37.376-7.168t-30.464-16.896-20.736-26.112-7.68-35.328q0-14.336 5.12-27.648t13.568-25.344 19.2-22.784 21.504-19.968l36.864-32.256t17.408-15.104 5.632-4.608 1.024-0.768q66.56-57.344 66.56-84.992 0-22.528-15.872-35.328-14.848-12.8-42.496-12.8-19.456 0-30.72 6.144-11.776 5.12-11.776 15.36 0 2.56 10.752 14.336 10.752 11.264 10.752 25.088 0 16.384-11.264 27.392t-27.648 11.008q-19.456 0-30.72-10.752t-13.568-26.112 4.608-32 23.808-28.416q28.672-20.48 75.264-20.48 22.016 0 43.776 4.864t38.912 15.36 27.648 26.624 10.496 38.656q0 14.848-5.632 28.672t-14.592 26.368-20.224 23.552-22.528 20.736zM700.928 679.936q-5.632 0-9.728 4.096-3.584 3.584-3.584 9.216v165.376l178.688-178.688h-165.376zM210.432 145.92h483.328v-77.824h-565.76v735.232h82.432v-657.408z" />
<glyph unicode="&#x39;" glyph-name="uni39" d="M896 619.008v-409.6h-617.472v747.008h281.6q13.824 0 26.112-5.376t21.504-14.592 14.592-21.504 5.376-26.112v-143.872q-0.512 0.512-1.024 0.512t-1.024 0.512q-21.504 6.144-43.008 8.192t-44.032-1.024q-43.008-5.632-78.592-27.136t-60.16-53.504-36.096-71.936-5.888-82.944 27.136-78.592 53.504-60.16 72.192-36.096 83.2-5.888q34.304 4.608 64.512 19.456t54.784 38.912q5.12 5.12 1.536 10.752-3.584 5.12-9.728 3.584-35.328-11.264-69.376-6.144t-61.952 23.040-46.848 46.336-23.552 63.744q-4.096 30.208 3.584 58.624t24.32 51.456 40.704 39.424 53.248 22.528q0.512 0 1.024 0.256t1.536 0.256v-29.696q0-13.824 5.632-25.6t15.872-20.48l6.656-43.52-59.392-29.696q-5.632-2.56-4.608-8.704t6.656-7.168l66.048-9.728 9.728-66.048q1.024-6.144 7.168-7.168h2.048q4.096 0 6.656 4.608l29.696 59.392 66.048-11.264q6.144-1.024 8.704 4.608t-1.536 9.728l-47.616 46.592 23.040 43.52 0.512 0.512h126.976zM700.928 679.936q-5.632 0-9.728 4.096-3.584 3.584-3.584 9.216v165.376l178.688-178.688h-165.376zM210.432 145.92h483.328v-77.824h-565.76v735.232h82.432v-657.408z" />
<glyph unicode="&#x3a;" glyph-name="uni3A" d="M512 896l124.928-252.928 279.040-40.448-202.24-196.608 47.616-278.016-249.344 131.072-249.344-131.072 47.616 278.016-202.24 196.608 279.040 40.448z" />
<glyph unicode="&#x3b;" glyph-name="uni3B" d="M512 241.152l-270.848-142.336 51.712 301.568-219.136 213.504 303.104 44.032 135.168 274.432 135.168-274.432 303.104-44.032-219.136-213.504 51.712-301.568zM740.352 157.184l-43.52 254.464 184.32 179.712-254.976 37.376-114.176 230.912-114.176-230.912-254.976-37.376 184.32-179.712-43.52-254.464 228.352 120.32z" />
<glyph unicode="&#x41;" glyph-name="uni41" d="M512 241.152l-270.848-142.336 51.712 301.568-219.136 213.504 303.104 44.032 135.168 274.432 135.168-274.432 303.104-44.032-219.136-213.504 51.712-301.568zM740.352 157.184l-43.52 254.464 184.32 179.712-254.976 37.376-114.176 230.912-114.176-230.912-254.976-37.376 184.32-179.712-43.52-254.464 228.352 120.32z" />
<glyph unicode="&#x42;" glyph-name="uni42" d="M912.384 299.52h-330.752q17.408-14.848 27.904-35.84t10.496-45.568q0-22.016-8.448-41.216t-22.784-33.536-33.536-22.784-41.216-8.448-41.216 8.448-33.536 22.784-22.784 33.536-8.448 41.216q0 24.576 10.496 45.568t27.904 35.84h-330.752v75.776l13.824 1.536q26.112 3.072 44.8 16.896t30.976 33.536 19.2 44.032 9.984 48.384 3.584 46.336 0 38.144q-1.024 8.704-1.792 17.152t-0.768 16.128q0 56.832 21.76 106.752t58.88 87.296 87.040 58.88 106.752 21.504h8.192q56.832 0 106.496-21.504t87.040-58.88 58.88-87.296 21.504-106.752q0-7.68-0.512-16.128t-1.536-17.152q-0.512-15.872-0.256-38.144t3.584-46.336 10.24-48.384 19.2-44.032 30.72-33.536 45.056-16.896l13.824-1.536v-75.776zM588.288 218.112q0 15.36-5.888 28.928t-15.872 23.552-23.552 15.872-28.928 5.888-28.928-5.888-23.552-15.872-15.872-23.552-5.888-28.928 5.888-28.928 15.872-23.552 23.552-15.872 28.928-5.888 28.928 5.888 23.552 15.872 15.872 23.552 5.888 28.928zM880.64 347.648q-29.696 6.656-50.688 23.296t-34.816 39.68-21.76 49.664-11.52 53.248-4.096 50.944 0.512 42.24q0.512 7.68 1.28 15.36t0.768 15.36q0 50.176-18.944 94.208t-51.968 77.056-77.056 52.224-94.208 19.2q-1.024 0-2.048-0.256t-2.048-0.256-2.048 0.256-2.048 0.256q-50.176 0-94.208-19.2t-77.056-52.224-51.968-77.056-18.944-94.208q0-7.68 0.768-15.36t1.28-15.36q1.024-17.92 0.512-42.24t-4.352-50.944-11.52-53.248-21.76-49.664-34.816-39.68-50.432-23.296v-16.384h733.184v16.384z" />
<glyph unicode="&#x43;" glyph-name="uni43" d="M960 512h-896v160.256h896v-160.256zM960 288.256h-896v159.744h896v-159.744zM960 64h-896v160.256h896v-160.256zM960 736.256h-896v159.744h896v-159.744z" />
<glyph unicode="&#x44;" glyph-name="uni44" d="M960 64h-640v160.256h640v-160.256zM960 288.256h-640v159.744h640v-159.744zM960 512h-640v160.256h640v-160.256zM960 736.256h-640v159.744h640v-159.744zM256 64h-192v160.256h192v-160.256zM256 288.256h-192v159.744h192v-159.744zM256 512h-192v160.256h192v-160.256zM256 736.256h-192v159.744h192v-159.744z" />
<glyph unicode="&#x45;" glyph-name="uni45" d="M579.072 448h380.928v-159.744h-331.264l65.024 65.024h-114.688v94.72zM579.072 672.256h380.928v-160.256h-380.928v160.256zM960 896v-159.744h-380.928v159.744h380.928zM564.736 224.256h395.264v-160.256h-896v160.256h395.264l52.736-53.248zM395.264 288.256h-331.264v159.744h387.072v-94.72h-120.832zM451.072 736.256h-387.072v159.744h387.072v-159.744zM451.072 512h-387.072v160.256h387.072v-160.256z" />
<glyph unicode="&#x46;" glyph-name="uni46" d="M256 64h-192v160.256h192v-160.256zM256 288.256h-192v159.744h192v-159.744zM256 512h-192v160.256h192v-160.256zM320 512h82.944l-82.944 82.432v-82.432zM320 448v-159.744h89.088v159.744h-89.088zM342.016 64h617.984v160.256h-617.984v-160.256zM689.664 512h270.336v160.256h-110.592zM683.008 288.256h276.992v159.744h-276.992v-159.744zM968.192 930.304q0-9.728-14.592-18.432t-41.472-16.384-64.256-13.824-83.2-10.496-98.304-6.912-109.312-2.56q-84.992 0-159.744 5.376t-130.56 14.592-88.064 21.76-32.256 26.88 32.256 26.624 88.064 21.504 130.56 14.592 159.744 5.376q56.832 0 109.312-2.304t98.304-6.912 83.2-10.752 64.256-13.568 41.472-16.384 14.592-18.176zM557.056 797.696q-76.288 0-136.448 3.072t-107.264 8.448-81.92 12.8-59.904 16.128l313.856-313.856v-245.248h143.872v245.248l313.344 313.856q-25.088-8.704-59.904-16.128t-81.664-12.8-107.264-8.448-136.704-3.072z" />
<glyph unicode="&#x47;" glyph-name="uni47" horiz-adv-x="1116" d="M1055.232 466.944h-90.624v-90.112h-90.112v90.112h-90.112v90.112h90.112v90.112h90.112v-90.112h90.624v-90.112zM676.352 557.056q2.048-11.776 3.584-24.32t1.536-27.904q0-67.584-21.76-124.416t-61.696-97.792-96-63.744-124.16-22.784q-43.52 0-83.968 11.264t-75.52 31.744-64 49.408-49.408 64-31.744 75.52-11.264 83.968 11.264 83.968 31.744 75.52 49.408 64 64 49.408 75.52 31.744 83.968 11.264q64.512 0 117.504-22.016t94.464-60.416l-86.016-82.944q-8.704 8.704-20.992 17.408t-27.904 15.872-34.816 11.52-42.24 4.352q-40.448 0-76.032-15.616t-62.208-42.752-41.984-63.488-15.36-77.824 15.36-77.824 41.984-63.488 62.208-42.752 76.032-15.616q46.592 0 79.616 14.848t54.272 36.096 32 44.8 13.312 40.96h-179.2v108.032h298.496z" />
<glyph unicode="&#x4c;" glyph-name="uni4C" horiz-adv-x="1116" d="M449.024 173.056q0 116.736 0.512 212.48v212.736t-0.512 32h152.064v-66.048h-1.024q7.68 11.776 18.432 25.088t27.136 24.832 39.168 19.2 53.504 7.68q37.376 0 69.376-12.288t55.296-37.632 36.608-64.256 13.312-91.648v-262.144h-151.552v244.736q0 23.040-4.352 41.984t-13.568 32.768-24.064 21.248-35.328 7.424q-15.872 0-28.416-4.864t-22.272-12.8-16.384-17.92-10.752-20.224q-3.072-7.168-4.096-16.896t-1.024-19.968v-255.488h-152.064zM212.992 173.056v457.216h152.064v-457.216h-152.064zM287.744 692.736q-18.944 0-34.56 6.144t-26.624 16.896-16.896 25.344-5.888 30.976q0 16.896 6.144 31.232t17.408 24.832 27.136 16.64 35.328 6.144 35.072-6.144 26.624-16.64 17.152-24.832 6.144-31.232q0-16.384-5.888-30.976t-16.896-25.344-27.136-16.896-36.096-6.144h-1.024z" />
<glyph unicode="&#x53;" glyph-name="uni53" d="M902.656 205.312q6.656-6.656 10.24-15.104t3.584-17.152-3.584-16.896-10.24-14.848q-14.848-13.312-34.304-13.312t-33.792 13.312l-241.664 227.328q-37.888-25.088-82.688-38.912t-94.464-13.824q-64 0-120.064 22.784t-98.048 62.208-66.048 92.16-24.064 112.64 24.064 112.896 66.048 92.416 98.048 62.208 120.064 22.784q63.488 0 119.808-22.784t98.048-62.208 66.048-92.416 24.32-112.896q0-49.152-16.64-93.184t-45.824-80.896l241.152-226.304zM415.744 404.48q44.544 0 83.456 15.872t67.84 43.008 45.824 64 16.896 78.336q0 41.984-16.896 78.592t-45.824 64-67.84 43.264-83.456 15.872-83.456-15.872-67.84-43.264-45.824-64-16.896-78.592q0-41.472 16.896-78.336t45.824-64 67.84-43.008 83.456-15.872z" />
<glyph unicode="&#x54;" glyph-name="uni54" d="M924.672 768q-34.816-51.712-84.48-87.552 0-5.632 0.256-11.008t0.256-11.008q0-55.808-14.080-113.408t-41.728-111.104-68.352-100.352-94.208-81.664-119.552-55.040-143.872-20.224q-72.192 0-137.472 19.968t-122.112 56.32q10.24-1.024 20.224-1.792t20.224-0.768q59.904 0 113.408 19.2t97.024 53.504q-27.648 0.512-52.992 9.472t-46.080 24.576-35.84 36.864-23.296 46.336q15.36-3.072 31.744-3.072 23.552 0 44.544 6.144-29.184 5.632-54.016 20.736t-43.008 37.12-28.416 49.664-10.24 58.368v2.048q34.816-19.456 76.8-20.992-34.304 23.040-54.784 59.648t-20.48 81.152q0 23.552 5.888 44.8t17.152 40.192q31.232-38.4 69.888-69.888t82.944-54.272 93.696-36.352 102.144-16.128q-4.608 18.432-4.608 38.4 0 35.328 13.312 66.048t36.352 53.76 53.76 36.352 66.048 13.312q36.864 0 68.608-14.336t54.784-39.424q29.184 5.632 56.064 16.128t51.456 24.832q-9.728-29.696-28.928-53.504t-45.312-39.68q51.712 6.144 97.28 26.624z" />
<glyph unicode="&#x61;" glyph-name="uni61" d="M797.184 334.336q-1.024-5.632-1.536-11.52t-0.512-12.032q0-39.936 8.96-71.424t23.296-45.824h-523.264q-8.192 7.68-14.080 19.2t-9.472 24.32-5.12 25.088-1.536 22.016q0 28.672 6.144 50.176h517.12zM209.408 267.264q0-39.936 7.424-75.776t20.736-57.856h630.784v-50.688h-635.904q-13.312 0.512-27.136 15.104t-25.088 39.168-18.688 57.088-7.424 68.864v493.056q0 34.304 4.864 67.072t14.080 58.624 22.016 41.728 29.184 15.872h644.096v-554.496h-631.296q-12.288-23.040-19.968-53.504t-7.68-64.256z" />
<glyph unicode="&#x62;" glyph-name="uni62" d="M770.048 605.184q-1.024-17.408-0.512-41.472t4.352-49.92 11.52-51.712 21.76-47.104 34.816-35.84 50.432-18.176v-45.568h-760.832v45.568q29.696 3.584 50.432 18.176t34.56 35.84 21.76 47.104 11.52 51.712 4.096 49.92 0 41.472q-1.024 8.192-1.536 16.128t-0.512 16.64q0 53.248 20.224 100.352t55.296 82.176 81.92 55.296 100.608 20.224h4.096q53.76 0 100.608-20.224t81.92-55.296 55.296-82.176 20.224-100.352q0-8.704-0.768-16.64t-1.28-16.128zM514.048 308.224q18.432 0 34.816-7.168t28.672-19.456 19.456-28.672 7.168-34.816-7.168-34.816-19.456-28.672-28.672-19.456-34.816-7.168-34.816 7.168-28.672 19.456-19.456 28.672-7.168 34.816 7.168 34.816 19.456 28.672 28.672 19.456 34.816 7.168z" />
<glyph unicode="&#x63;" glyph-name="uni63" d="M580.096 512l253.952-253.952-68.096-68.096-253.952 253.952-253.952-253.952-68.096 68.096 253.952 253.952-253.952 253.952 68.096 68.096 253.952-253.952 253.952 253.952 68.096-68.096z" />
<glyph unicode="&#x64;" glyph-name="uni64" d="M596.48 79.872q-25.6 0-45.824 4.608t-35.584 11.776-26.624 15.872-18.944 17.408q-15.36 16.896-23.296 35.328t-11.52 35.072-3.84 29.44-0.256 18.432v453.12h95.744v-459.776q0-3.072 0.256-8.704t1.792-12.288 4.352-13.824 8.448-12.8q15.872-17.408 55.296-17.408t54.784 17.408q5.632 6.144 8.192 13.568t3.584 14.592q1.536 7.68 1.024 15.872l-0.512 6.144v467.456q0 5.632-1.28 18.176t-6.144 27.648-14.848 31.232-27.392 29.44-43.52 21.76-62.976 8.448q-76.8 0-113.664-38.4-13.824-14.336-20.736-30.976t-9.728-30.976-3.072-24.064l-0.256-9.728v-523.264h-95.744v537.088t5.12 39.936 17.408 52.736 36.352 54.272q65.536 69.632 184.32 69.632 118.272 0 185.856-68.608 25.088-25.6 38.656-54.016t19.712-52.736 7.168-40.448 1.024-17.664v-464.896q0-6.144-0.256-18.688t-3.328-28.672-10.752-34.048-22.016-34.304q-7.68-8.704-18.944-17.664t-26.624-16.128-35.584-11.776-45.824-4.608z" />
<glyph unicode="&#x65;" glyph-name="uni65" d="M756.736 374.272l45.568-0.512-185.856-185.856-0.512 36.352-0.512 61.952-0.512 21.504-0.512 39.424v19.456l0.512 0.512q0 1.024 0.256 1.28t0.256 0.768q0.512 0.512 1.536 2.56l2.048 2.048q1.024 0.512 1.28 0.768t1.28 0.768h1.536l0.512 0.512h0.512l0.512 0.512h3.584l9.728-0.512h6.144l64.512-1.024zM911.36 510.464q-3.072-22.528-15.36-40.96-0.512-1.024-2.048-2.56 0-0.512-0.512-1.024-2.048-2.048-3.328-3.584t-2.304-2.56q-1.536-1.024-2.816-2.56t-2.816-2.56q-1.024-1.024-1.536-1.024v-0.512h-0.512q-8.192-5.632-14.336-8.192-0.512 0-1.024-0.512l-3.072-1.024q-4.608-2.048-8.192-2.56-8.704-2.56-16.384-3.072t-16.896 0l-30.208 0.512-147.968 2.048q-9.216 0.512-19.456 0.256t-19.968-3.84q-24.576-9.728-38.4-29.184t-13.824-45.568v-211.968h-437.76v423.936h798.72v-63.488zM910.848 637.952h-798.208v172.032h111.104v64h64v-64h448.512v64h64v-64h110.592v-172.032z" />
<glyph unicode="&#x66;" glyph-name="uni66" d="M571.904 121.344h-161.28v390.656h-80.896v134.656h80.896v80.896q0 41.472 9.216 73.984t29.952 55.040 54.016 34.304 81.92 11.776h107.52v-134.656h-67.072q-18.944 0-29.696-3.584t-16.128-10.24-6.656-16.896-1.28-23.040l-0.512-67.584h122.368l-14.336-134.656h-108.032v-390.656z" />
<glyph unicode="&#x67;" glyph-name="uni67" d="M698.88 411.648l-186.88-186.88-186.88 186.88h129.536v387.584h114.688v-387.584h129.536z" />
<glyph unicode="&#x68;" glyph-name="uni68" d="M944.64 589.824q4.608-4.608-1.536-22.784t-21.76-44.544-39.936-58.112-56.576-64q-31.744-32.256-63.744-56.576t-58.368-39.936-44.544-21.76-22.784-1.536q-0.512 0.512-0.512 1.024t-0.512 1.024l-0.512-0.512-291.328 291.328q27.648 9.728 55.552 27.392t52.224 36.864 43.264 36.608 29.184 27.648q14.336 14.336 33.024 34.56t37.12 44.288 34.304 50.176 24.576 51.712l291.328-291.328-0.512-0.512zM578.048 948.736q7.68 0 12.8-5.12 8.704-8.704 4.096-28.416t-19.968-46.336-40.192-58.112-57.088-63.744q-27.136-27.136-53.504-48.896t-50.176-37.376-43.776-24.064-33.28-8.448q-9.216 0-14.336 5.12t-6.144 10.24q-1.536 8.704 6.4 27.648t23.808 43.776 39.168 53.76 52.48 58.112q27.648 27.648 55.296 50.176t51.712 38.4 43.008 24.576 29.696 8.704zM77.312 167.424l287.232 287.232 96.768-97.28-286.72-286.72z" />
<glyph unicode="&#x69;" glyph-name="uni69" d="M591.872 719.872h-159.744v192h159.744v-192zM783.872 271.872v-159.744h-543.744v159.744h192v224.256h-192v159.744h351.744v-384h192z" />
<glyph unicode="&#x6a;" glyph-name="uni6A" d="M942.592 942.592q29.696-29.184 44.288-66.304t14.592-75.776-14.592-75.776-44.288-66.816l-118.272-118.272q-24.064-24.064-53.76-38.4t-61.44-18.432-63.488 1.536-60.416 21.504l-67.072-67.072q15.872-28.672 21.504-60.416t1.536-63.488-18.432-61.44-38.4-53.76l-118.272-118.272q-29.696-29.696-66.816-44.544t-75.776-14.848-75.776 14.848-66.304 44.544q-29.696 29.184-44.544 66.304t-14.848 75.776 14.848 75.776 44.544 66.816l118.272 118.272q24.576 24.576 54.528 38.656t61.952 18.176 64.256-2.048 60.928-22.528l66.048 66.048q-16.384 28.672-22.528 60.928t-2.048 64.256 18.176 61.952 38.656 54.528l118.272 118.272q29.696 29.696 66.816 44.288t75.776 14.592 75.776-14.592 66.304-44.288zM407.040 276.48q15.872 15.872 22.016 36.096t3.584 41.216l-41.984-41.984q-7.68-8.192-17.92-12.288t-20.48-4.096-20.48 4.096-17.92 12.288q-8.192 7.68-12.288 17.92t-4.096 20.48 4.096 20.48 12.288 17.92l43.52 44.032q-21.504 3.584-43.008-2.816t-37.888-22.784l-118.272-118.272q-13.312-13.312-20.224-30.464t-6.912-34.816 6.912-34.56 20.224-30.72q13.312-13.312 30.464-20.224t34.816-6.912 34.816 6.912 30.464 20.224l118.272 118.272zM865.792 735.232q13.312 13.312 19.968 30.464t6.656 34.816-6.656 34.56-19.968 30.72q-13.312 13.312-30.464 19.968t-34.816 6.656-34.816-6.656-30.464-19.968l-118.272-118.272q-16.384-16.384-22.784-37.888t-2.816-43.008l48.128 48.128q7.68 7.68 17.92 11.776t20.736 4.096 20.48-4.096 18.176-11.776q15.872-16.384 15.872-38.656t-15.872-38.656l-46.592-46.080q20.992-2.56 41.216 3.584t36.096 22.016l118.272 118.272z" />
<glyph unicode="&#x6b;" glyph-name="uni6B" d="M317.952 171.008l-172.032 275.456 81.408 50.688 104.96-167.936 474.624 523.776 71.168-64.512z" />
<glyph unicode="&#x6c;" glyph-name="uni6C" d="M689.664 636.416q30.208-0.512 57.6-14.848t48.128-36.608 32.768-48.64 12.032-50.432v-298.496q0-31.744-3.072-50.432t-13.056-28.672-28.928-13.056-50.176-3.072h-465.92q-31.744 0-50.432 3.072t-28.672 13.056-13.056 28.672-3.072 50.432v298.496q0 24.064 7.168 46.336t20.224 40.704 30.72 32.512 39.168 22.272v120.32q0 37.888 14.336 71.424t39.168 58.368 58.368 39.424 71.424 14.592h95.232q37.888 0 71.424-14.592t58.368-39.424 39.168-58.368 14.336-71.424h-62.464q0 25.088-9.472 47.104t-25.856 38.4-38.4 25.856-47.104 9.472h-95.232q-25.088 0-47.104-9.472t-38.4-25.856-25.856-38.4-9.472-47.104v-110.080h247.808l98.304-1.536zM546.304 280.064q23.040 10.24 37.632 31.232t14.592 48.128q0 17.92-6.912 33.536t-18.688 27.392-27.392 18.688-33.536 6.912-33.536-6.912-27.392-18.688-18.688-27.392-6.912-33.536q0-27.136 14.592-48.128t37.632-31.232v-78.848q0-14.336 9.984-24.32t24.32-9.984 24.32 9.984 9.984 24.32v78.848z" />
<glyph unicode="&#x6d;" glyph-name="uni6D" d="M641.024 561.664l-90.112-90.624h422.912v-142.848h-565.76l-166.912-166.4-65.024 65.024 100.864 101.376h-226.816v142.848h370.176l90.112 90.624h-460.288v142.848h603.136l157.696 157.696 65.536-65.024-92.16-92.672h189.44v-142.848h-332.8z" />
<glyph unicode="&#x6e;" glyph-name="uni6E" d="M187.904 190.464l319.488 319.488-320 0.512 324.096 324.096 324.608-325.12-320 0.512 320.512-320.512z" />
<glyph unicode="&#x73;" glyph-name="uni73" d="M814.080 472.064q-5.632-40.96-19.968-76.8l65.536-49.152-30.208-52.224-74.752 31.744q-12.288-16.384-26.112-30.72t-29.696-26.624l31.232-73.728-52.224-30.208-47.104 62.976q-37.376-16.896-79.36-23.040l-9.216-76.288h-60.416l-8.704 74.24q-22.016 2.56-42.752 7.68t-40.704 12.8l-43.52-58.368-52.224 30.208 28.16 65.536q-17.92 13.312-33.792 28.416t-29.696 32.512l-64-27.136-30.208 52.224 54.784 40.96q-8.704 20.48-14.848 41.984t-8.704 44.544l-67.584 8.192v60.416l67.072 8.192q2.56 23.040 8.704 44.544t14.848 42.496l-54.272 40.448 30.208 52.224 62.976-27.136q28.16 35.84 64 61.952l-27.648 64.512 52.224 30.208 43.008-56.832q19.456 7.68 40.448 13.056t43.52 7.936l8.704 72.192h60.416l8.704-74.752q42.496-6.144 80.896-23.040l46.080 61.44 52.224-30.208-30.72-72.192q15.872-12.8 29.952-27.392t26.368-30.976l73.728 31.232 30.208-52.224-65.024-48.64q14.848-36.864 19.968-77.312l81.408-9.728v-60.416zM512 437.248q15.36 0 29.184 5.888t23.808 15.872 15.872 23.808 5.888 29.184-5.888 29.184-15.872 23.808-23.808 15.872-29.184 5.888-29.184-5.888-23.808-15.872-15.872-23.808-5.888-29.184 5.888-29.184 15.872-23.808 23.808-15.872 29.184-5.888z" />
<glyph unicode="&#x75;" glyph-name="uni75" d="M707.584 665.6q0-34.304-15.36-64.512t-41.984-52.736-62.208-35.584-76.032-13.056-76.032 13.056-62.208 35.584-41.984 52.736-15.36 64.512v64.512q0 34.304 15.36 64.512t41.984 52.736 62.208 35.584 76.032 13.056 76.032-13.056 62.208-35.584 41.984-52.736 15.36-64.512v-64.512zM684.032 468.48q-34.304-26.112-78.336-40.96t-93.696-14.848-93.696 14.848-78.336 40.96q-44.544-13.824-81.152-34.304t-62.72-46.080-40.448-55.040-14.336-61.696v-143.36h741.376v143.36q0 32.256-14.336 61.696t-40.448 55.040-62.72 46.080-81.152 34.304z" />
<glyph unicode="&#x25fc;" glyph-name="uni25FC" horiz-adv-x="256" d="M0 0v0 0 0 0z" />
<glyph unicode="&#xe900;" glyph-name="uni76" data-tags="arrow_down" horiz-adv-x="706" d="M212.163 1023.999v-693.763h-212.122l353.247-330.234 353.138 330.234h-212.068v693.763z" />
<glyph unicode="&#xe901;" glyph-name="uni77" data-tags="arrow_up" horiz-adv-x="706" d="M353.261 1023.999l-353.247-330.234h212.122v-693.763h282.249v693.763h212.068z" />
<glyph unicode="&#xe902;" glyph-name="uni78" data-tags="book-search" horiz-adv-x="1027" d="M82.237 235.499c0 53.583 13.161 88.633 33.115 125.617h245.173c-3.139 17.634-5.46 35.609-5.46 54.145 0 171.247 138.82 310.069 310.066 310.069 72.377 0 138.434-25.072 190.857-66.831l-0.945 365.114c0 0-769.536 0.386-770.011 0.386-1.032 0-2.063-0.302-3.095-0.43-1.42-0.171-2.84-0.299-4.257-0.601-0.26-0.087-0.559-0.129-0.819-0.215-25.629-5.848-45.197-33.286-52.079-52.166-5.331-14.707-17.416-30.705-22.448-165.785h-0.042v-0.73c-1.42-37.889-2.323-84.635-2.323-143.896v-457.49c0-1.722-0.087-13.161 0.73-15.137 5.205-107.471 54.618-182.688 93.709-185.87l1.16-1.677h574.897v75.259h-554.985c-21.416 35.223-33.244 96.589-33.244 160.238zM1016.859 124.019l-171.806 166.131c21.846 33.157 34.706 72.763 34.706 115.382 0 115.855-94.226 210.081-210.081 210.081-115.858 0-210.123-94.226-210.123-210.081 0-115.813 94.266-210.081 210.123-210.081 49.326 0 94.699 17.203 130.564 45.801l170.515-164.882c6.452-6.237 14.752-9.334 23.051-9.334 8.688 0 17.332 3.399 23.826 10.108 12.73 13.158 12.384 34.146-0.774 46.874zM669.677 261.723c-79.302 0-143.809 64.508-143.809 143.809s64.508 143.809 143.809 143.809 143.767-64.508 143.767-143.809-64.466-143.809-143.767-143.809z" />
<glyph unicode="&#xe903;" glyph-name="uni79" data-tags="extsrcico" horiz-adv-x="1025" d="M852.813 171.187h-681.584v681.584h170.118v171.226h-341.344v-1023.994h1023.994v338.913h-171.184zM509.473 1023.997l154.875-154.872-359.58-360.518 206.029-206.029 359.58 360.518 154.83-154.83v515.732z" />
<glyph unicode="&#xe904;" glyph-name="uni80" data-tags="new-star" horiz-adv-x="1071" d="M414.937 1022.678l36.16-413.178-377.352 160.178-72.302-222.521 407.53-94.075-279.986-310.949 186.88-140.812 219.865 351.87 219.881-351.87 186.863 140.812-279.986 310.949 407.53 94.075-72.302 222.521-385.239-163.603 36.444 416.603z" />
<glyph unicode="&#xe905;" glyph-name="uni81" data-tags="page" horiz-adv-x="833" d="M604.434 696.578c0.036 0 0.071 0 0.071 0 0.038 0 0.038 0 0.038 0h1.75l192.202 2.515-204.893 204.857c0 0-2.809-193.26-2.809-193.077 0-0.036 0.036-0.109 0.036-0.145 0-0.183-0.036-0.329-0.036-0.512 0-7.548 6.128-13.639 13.641-13.639zM833.179 146.084v325.249l0.183 157.116-223.712-2.771c-39.572-0.51-71.448 21.189-85.49 58.025-5.287 13.859-4.704 29.688-4.194 43.619 0.147 3.21 2.736 180.494 2.736 180.494s2.043 34.283-3.172 52.883c-7.259 25.822-22.467 41.103-34.757 48.36-8.9 5.289-21.554 10.431-30.855 12.475-3.136 0.692-6.785 1.166-10.505 1.494-0.183 0.073-0.436 0.294-0.583 0.294-15.244 0.948-39.389 0.654-39.389 0.654l-403.439-0.18v-1023.812h833.36v1.24l-0.183-0.145v145.007z" />
<glyph unicode="&#xe906;" glyph-name="uni82" data-tags="related-docs" horiz-adv-x="904" d="M488.485 840.655c-0.666 2.864-1.591 5.672-2.373 8.044-0.318 0.897-1.503 3.906-1.591 4.051-1.851 4.196-4.28 8.534-7.927 13.917-0.318 0.491-1.243 1.764-1.764 2.343-1.505 1.822-3.27 3.675-4.976 5.411-1.649 1.648-3.299 3.152-5.817 5.322-0.491 0.348-2.921 2.142-3.963 2.749-11.66 7.869-24.68 12.382-39.781 14.263 0 0-3.413 0.549-6.943 0.549l-286.658-0.115v-782.378h80.373v712.796h283.591c-0.493 4.224-1.014 8.42-2.17 13.048zM361.777 967.363c-0.666 2.864-1.591 5.67-2.372 8.044-0.318 0.897-1.505 3.906-1.591 4.051-1.852 4.194-4.282 8.534-7.929 13.915-0.318 0.493-1.243 1.766-1.764 2.343-1.505 1.824-3.269 3.675-4.976 5.411-1.649 1.649-3.299 3.154-5.815 5.324-0.493 0.348-2.923 2.14-3.964 2.748-11.66 7.87-24.678 12.384-39.781 14.265 0 0-3.413 0.549-6.943 0.549l-286.658-0.117v-782.378h80.373v712.797h283.591c-0.491 4.224-1.012 8.42-2.17 13.048zM694.604 491.6c0 0 0.030 0 0.058 0h1.591l170.438 2.229-181.72 181.694c0 0-2.488-171.393-2.488-171.248 0-0.030 0.057-0.088 0.057-0.117 0-0.145-0.057-0.29-0.057-0.463 0-6.684 5.439-12.094 12.121-12.094zM903.725 431.248l-102.217-1.36c0 0-111.792-1.012-116.305-0.376h-313.044v63.13h247.975c0 23.407-0.028 66.312-0.028 66.312h-247.947v63.13h248.872l0.636 41.517 0.464 29.656c0.115 12.036-0.32 21.236-3.126 32.577-0.666 2.864-1.591 5.7-2.372 8.044-0.32 0.897-1.505 3.934-1.593 4.079-1.851 4.196-4.28 8.506-7.927 13.917-0.318 0.491-1.243 1.736-1.764 2.315-1.505 1.851-3.27 3.673-4.976 5.409-1.649 1.649-3.299 3.154-5.845 5.324-0.463 0.376-2.892 2.14-3.934 2.778-11.688 7.869-24.708 12.354-39.781 14.235 0 0-3.413 0.579-6.943 0.579l-286.658-0.145v-782.38h646.659v428.309l-0.145 2.951zM801.508 170.659h-429.349v63.13h429.349v-63.13zM801.508 300.070h-429.349v63.16h429.349v-63.16z" />
<glyph unicode="&#xe907;" glyph-name="uni83" data-tags="ShowTable" horiz-adv-x="1523" d="M1468.137 969.556c-72.525 72.525-190.033 72.525-262.558 0l-444.303-444.303-444.303 444.303c-72.525 72.525-190.12 72.525-262.558 0-72.525-72.525-72.525-190.033-0.086-262.558l706.948-706.948 706.861 706.948c72.525 72.525 72.525 190.033 0 262.558z" />
<glyph unicode="&#xe908;" glyph-name="uni84" data-tags="star_bell_combos_01" horiz-adv-x="1143" d="M773.988 327.393l41.719-254.269-277.436 146.344-277.464-146.344 50.751 309.521-225.682 219.373 311.125 47.538 141.385 284.289 58.607-117.873c4.013 19.956 9.949 38.049 17.976 53.99l-76.583 154.057-168.050-337.904-370.334-56.571 268.547-261.090-60.442-368.47 330.164 174.070 330.106-174.070-51.066 311.383c-15.684 2.581-30.249 8.115-43.324 16.029zM1142.905 486.597c0 0-48.054 50.235-74.835 76.699-27.726 29.217-31.425 55.71-31.425 199.99 0 168.022-160.766 181.583-199.559 181.583-38.823 0-199.589-13.561-199.589-181.583 0-144.279-3.67-170.773-31.397-199.99-26.809-26.464-78.074-76.699-78.074-76.699h258.453c-15.339-13.734-25.146-33.375-25.146-55.423 0-41.462 34.007-75.036 75.925-75.036 41.948 0 75.953 33.574 75.953 75.036 0 22.049-9.833 41.689-25.146 55.423h254.841z" />
<glyph unicode="&#xe909;" glyph-name="uni85" data-tags="star_bell_combos_02" horiz-adv-x="1194" d="M1193.796 463.386l-33.919 35.44c0 0-49.174 51.439-76.154 78.074-21.59 22.766-26.207 41.575-26.207 189.21 0 200.077-201.252 205.868-224.189 205.868-19.124 0-161.398-4.415-208.679-121.168l-86.275 173.209-168.050-337.904-370.334-56.571 268.547-261.090-60.442-368.47 330.136 174.070 330.134-174.070-54.764 332.6c6.423-1.318 13.074-2.035 19.926-2.035 54.163 0 98.261 43.696 98.261 97.4 0 12.243-2.408 24.229-6.881 35.44h268.89zM815.694 73.124l-277.464 146.344-277.436-146.344 50.751 309.521-225.71 219.373 311.153 47.538 141.385 284.289 72.196-144.883c-0.63-7.483-1.461-14.765-1.461-22.852 0-147.634-4.617-166.443-25.72-188.693-27.267-26.98-79.451-78.074-79.451-78.074l-36.642-35.956h274.825c-4.501-11.211-6.909-23.197-6.909-35.44 0-29.274 13.361-55.252 34.063-73.114l46.421-281.707zM882.3 453.838c4.501-7.971 7.541-16.573 7.541-25.892 0-30.592-25.262-55.451-56.314-55.451-31.109 0-56.37 24.859-56.37 55.451 0 8.143 2.007 15.885 5.448 23.053 5.191 14.25 17.95 37.732 27.355 54.335h-240.046c14.91 14.651 31.425 30.879 43.409 42.722 34.465 36.357 37.734 71.28 37.734 218.054 0 156.036 151.82 163.922 182.271 163.922 30.421 0 182.241-7.886 182.241-163.922 0-146.773 3.269-181.697 38.221-218.542 11.727-11.611 27.526-27.696 41.633-42.233h-239.301c8.86-15.626 20.444-37.102 26.179-51.496z" />
<glyph unicode="&#xe90a;" glyph-name="uni86" data-tags="star_bell_combos_03" horiz-adv-x="1143" d="M714.841 430.878c0 3.012 0.114 6.021 0.315 9.003h-301.009l158.776 155.679c13.275 14.020 18.090 26.262 18.090 167.435 0 42.918 9.232 77.924 23.882 106.967l-76.579 154.045-168.093-338.021-370.219-56.595 268.498-260.984-60.41-368.413 330.080 174.114 330.11-174.114-51.062 311.416c-57.972 9.547-102.381 59.29-102.381 119.468zM1142.81 486.624c0 0-48.052 50.231-74.831 76.694-27.724 29.214-31.423 55.706-31.423 199.974 0 168.007-160.754 181.569-199.543 181.569-38.82 0-199.573-13.562-199.573-181.569 0-144.268-3.67-170.76-31.395-199.974-26.807-26.464-78.068-76.694-78.068-76.694h258.432c-15.338-13.733-25.144-33.372-25.144-55.419 0-41.457 34.004-75.030 75.919-75.030 41.945 0 75.947 33.573 75.947 75.030 0 22.047-9.833 41.686-25.142 55.419h254.821z" />
<glyph unicode="&#xe90b;" glyph-name="uni87" data-tags="star_bell_combos_04" horiz-adv-x="1194" d="M691.763 422.133h-330.367l111.814 109.664c0.028 0.030 52.092 51.004 79.302 77.926 8.17 8.658 12.958 20.127 12.958 158.117 0 54.789 13.36 98.052 34.377 132.426l-61.526 123.742-168.094-338.023-370.217-56.565 268.496-260.986-60.408-368.441 330.108 174.144 330.080-174.144-47.622 290.487c-69.639 6.021-125.145 61.841-128.9 131.653zM1193.764 465.059l-33.918 35.435c0 0-49.168 51.435-76.148 78.070-21.588 22.764-26.205 41.572-26.205 189.195 0 200.060-201.206 205.852-224.171 205.852s-224.201-5.792-224.201-205.852c0-147.622-4.616-166.43-25.716-188.678-27.267-26.98-79.445-78.070-79.445-78.070l-36.641-35.951h274.803c-4.501-11.212-6.909-23.223-6.909-35.437 0-53.699 44.095-97.392 98.311-97.392 54.157 0 98.253 43.693 98.253 97.392 0 12.214-2.41 24.225-6.882 35.437h268.871zM882.291 455.512c4.501-7.971 7.54-16.571 7.54-25.89 0-30.592-25.23-55.449-56.308-55.449-31.080 0-56.366 24.857-56.366 55.449 0 8.142 2.007 15.884 5.447 23.051 5.218 14.22 17.947 37.701 27.351 54.329h-240.027c14.909 14.652 31.423 30.879 43.408 42.72 34.461 36.352 37.729 71.273 37.729 218.036 0 156.022 151.808 163.907 182.256 163.907 30.418 0 182.228-7.885 182.228-163.907 0-146.763 3.267-181.684 38.218-218.524 11.726-11.612 27.522-27.696 41.628-42.232h-239.282c8.86-15.625 20.47-37.099 26.177-51.491z" />
<glyph unicode="&#xe90c;" glyph-name="uni88" data-tags="tool_ico_enlarge_font" horiz-adv-x="1134" d="M805.037 231.216l-314.399 741.584h-39.478l-312.987-772.601c-53.575-131.118-70.495-152.267-138.167-164.956v-35.246h286.202v35.246c-83.184 5.64-115.609 21.149-115.609 57.807 0 18.325 11.281 53.575 40.886 129.706l21.149 54.983h317.219c47.934-109.969 64.851-160.724 64.851-191.741 0-29.605-18.329-43.706-67.671-46.522-7.052 0-25.377-1.412-45.118-4.232v-35.246h456.794v35.246h-5.636c-54.987 0-77.544 29.609-148.035 195.973zM253.779 332.725l132.53 342.596 142.395-342.596h-274.925zM1004.593 895.001v129.002h-128.936v-129.002h-129.069v-129.002h129.069v-128.94h128.936v128.94h128.94v129.002z" />
<glyph unicode="&#xe90d;" glyph-name="uni89" data-tags="tool_ico_reduce_font" horiz-adv-x="1833" d="M847.452 243.347l-331.040 780.681h-41.548l-329.448-813.334c-56.39-138.011-74.194-160.266-145.425-173.626v-37.097h301.247v37.097c-87.554 5.939-121.688 22.262-121.688 60.847 0 19.293 11.872 56.39 43.036 136.523l22.262 57.878h333.893c50.457-115.749 68.268-169.175 68.268-201.821 0-31.164-19.293-46.006-71.231-48.969-7.421 0-26.713-1.488-47.487-4.458v-37.097h480.916v37.097h-5.939c-57.871 0-81.615 31.164-155.815 206.279zM267.104 350.194l139.499 360.716 149.883-360.716h-289.382zM1192.848 957.876h640.024v-213.272h-640.024v213.272z" />
<glyph unicode="&#xe90e;" glyph-name="uni90" data-tags="user_login" horiz-adv-x="867" d="M599.737 758.151v-162.21h-332.927v169.746c0 67.665 24.704 113.578 75.551 140.38 40.902 21.519 83.941 22.529 85.611 22.568h10.799c66.888 0 112.258-25.015 138.71-76.483 21.597-41.99 22.296-86.271 22.296-86.466v-7.536h-0.039zM341.544 355.927c0 51.312 41.058 92.875 91.748 92.875 50.652 0 91.709-41.563 91.709-92.875 0-36.746-21.131-68.403-51.778-83.475v-94.972c0-35.775-35.309-35.775-35.309-35.775h-9.245c-35.348 0-35.348 35.775-35.348 35.775v94.972c-30.609 15.071-51.778 46.729-51.778 83.475zM866.553 67.592v460.761c0 0 0 67.588-66.772 67.588h-105.654l-0.117 169.746c0 6.526-0.855 65.684-30.997 126.63-29.676 60.091-92.681 131.679-224.243 131.679h-10.993c-6.448 0-64.869-0.893-125.115-31.347-59.353-30.065-130.126-93.807-130.126-226.963v-169.746h-105.732c0 0-66.811 0-66.811-67.588v-460.761c0 0 0-67.588 66.811-67.588h732.977c0 0 66.772 0 66.772 67.588z" />
</font>
</defs>
</svg>
